Details for this torrent 

Aposta Maxima (2013) BDRip 1080p 5.1 Dublado ToTTi9
Type:
Video > HD - Movies
Files:
3
Size:
1.62 GiB (1741394759 Bytes)

Info:
IMDB
Spoken language(s):
Portugese
Tag(s):
Aposta Maxima Runner Runner 1080p Dublado Justin Timberlake Ben Affleck Gemma Arterton ToTTi9

Uploaded:
2013-12-23 11:07:12 GMT
By:
ToTTi9

Seeders:
22
Leechers:
1
Comments
1  

Info Hash:
 
DAF9C30EDD5C14127F756FBEC4A9CC16CE612AE1
picture




(Problems with magnets links are fixed by upgrading your torrent client!)
=======================================================
==== w w w . t h e p i r a t e f i l m e s . c o m ====
=======================================================

IMDb : http://www.imdb.com/title/tt2364841/   Nota: 5.4


Dados do Filme:

Titulo Original: Runner Runner
Titulo no Brasil: Aposta Máxima
Ano: 2013
Genero: Suspense, Crime
Tamanho: 1.62 GB
Formato: MP4
Duração: 01:31:31
Qualidade: 1080p (Full HD)
Resolução: 1920 x 800
Idioma: Português Br
Release By: ToTTi9 
Encode By: Yify  


Sinopse: Ritchie (Justin Timberlake) luta para concluir sua universidade, mas tem problemas para arcar com as despesas do curso. Ele acaba entrando de cabeça no mundo das apostas online de pôquer. Antes ele apenas apresenta o jogo para outras pessoas, mas também acaba jogando para conseguir dinheiro. Ele perde tudo, mas está convencido de que foi passado para trás. É aí que decide visitar a Costa Rica e pressionar o executivo Ivan Block (Ben Affleck). Impressionado com o jovem, o empresário acaba acolhendo Ritchie em seu negócio.



Dados do Arquivo:

Format                                   : MPEG-4
Format profile                           : Base Media
Codec ID                                 : isom
File size                                : 1.62 GiB
Duration                                 : 1h 31mn
Overall bit rate                         : 2 537 Kbps

Video
ID                                       : 1
Format                                   : AVC
Format/Info                              : Advanced Video Codec
Format profile                           : [email protected]
Format settings, CABAC                   : Yes
Format settings, ReFrames                : 4 frames
Codec ID                                 : avc1
Codec ID/Info                            : Advanced Video Coding
Duration                                 : 1h 31mn
Bit rate                                 : 2 151 Kbps
Maximum bit rate                         : 12.9 Mbps
Width                                    : 1 920 pixels
Height                                   : 800 pixels
Display aspect ratio                     : 2.40:1
Frame rate mode                          : Constant
Frame rate                               : 23.976 fps
Color space                              : YUV
Chroma subsampling                       : 4:2:0
Bit depth                                : 8 bits
Scan type                                : Progressive
Bits/(Pixel*Frame)                       : 0.058
Stream size                              : 1.37 GiB (85%)
Title                                    : ToTTi9
Writing library                          : x264

Audio
ID                                       : 2
Format                                   : AC-3
Format/Info                              : Audio Coding 3
Mode extension                           : CM (complete main)
Format settings, Endianness              : Big
Codec ID                                 : ac-3
Duration                                 : 1h 31mn
Bit rate mode                            : Constant
Bit rate                                 : 384 Kbps
Channel(s)                               : 6 channels
Channel positions                        : Front: L C R, Side: L R, LFE
Sampling rate                            : 48.0 KHz
Bit depth                                : 16 bits
Compression mode                         : Lossy
Stream size                              : 251 MiB (15%)
Title                                    : ToTTi9
Language                                 : Portuguese



Visitem:

=======================================================
==== w w w . t h e p i r a t e f i l m e s . c o m ====
=======================================================					

Comments

está sem audio ;s